<?xml version="1.0" standalone="no"?>
<!DOCTYPE svg PUBLIC "-//W3C//DTD SVG 1.1//EN" "http://www.w3.org/Graphics/SVG/1.1/DTD/svg11.dtd" >
<svg xmlns="http://www.w3.org/2000/svg">
<metadata>
This is a custom SVG font generated by IcoMoon.
0
</metadata>
<defs>
<font id="icomoon" horiz-adv-x="512" >
<font-face units-per-em="512" ascent="435" descent="-77" />
<missing-glyph horiz-adv-x="512" />
<glyph unicode="&#x2630;" d="M0.00,172.316c0.00,44.445, 13.867,82.578, 41.60,114.40c-1.60,4.089-3.022,8.978-4.267,14.667c-1.245,5.688-2.40,13.511-3.467,23.467
	c-1.067,9.955-0.622,21.511, 1.333,34.666c 1.956,13.156, 5.511,26.578, 10.667,40.267c 0.889,0.356, 2.267,0.667, 4.133,0.934
	s 6.089,0.045, 12.667-0.667c 6.578-0.711, 13.733-2.311, 21.467-4.80c 7.733-2.488, 18.044-7.11, 30.934-13.866
	c 12.889-6.756, 26.444-15.378, 40.667-25.867C 180.089,362.806, 213.511,366.45, 256.00,366.45c 42.489,0.00, 75.822-3.645, 100.00-10.934
	c 14.222,10.489, 27.733,19.156, 40.533,26.00c 12.80,6.845, 23.245,11.423, 31.334,13.733c 8.088,2.312, 15.155,3.911, 21.199,4.80
	c 6.045,0.89, 10.40,1.067, 13.067,0.534l 4.00-0.801c 5.155-13.688, 8.666-27.11, 10.533-40.267c 1.866-13.155, 2.267-24.755, 1.199-34.80
	c-1.066-10.044-2.178-17.822-3.333-23.333c-1.155-5.512-2.533-10.40-4.133-14.667c 27.733-32.00, 41.60-70.133, 41.60-114.40
	c0.00-24.711-2.178-47.111-6.533-67.20c-4.355-20.088-10.40-37.511-18.134-52.267c-7.733-14.755-17.555-27.688-29.467-38.80
	c-11.911-11.111-24.844-20.267-38.80-27.467c-13.955-7.199-29.866-13.021-47.733-17.467c-17.866-4.444-36.089-7.555-54.666-9.333
	c-18.578-1.777-38.978-2.667-61.20-2.667c-22.222,0.00-42.578,0.89-61.067,2.667c-18.489,1.778-36.667,4.889-54.533,9.333
	c-17.867,4.445-33.733,10.268-47.60,17.467c-13.867,7.20-26.711,16.355-38.533,27.467s-21.60,24.045-29.333,38.80
	c-7.733,14.756-13.733,32.179-18.00,52.267C 2.133,125.205,0.00,147.605,0.00,172.316z M 68.267,105.116c0.00-15.11, 1.778-28.577, 5.333-40.399
	c 3.555-11.822, 8.044-21.733, 13.467-29.733c 5.422-8.00, 13.022-14.756, 22.80-20.267c 9.778-5.512, 19.245-9.778, 28.40-12.80
	c 9.156-3.022, 20.978-5.378, 35.467-7.067c 14.489-1.688, 27.422-2.711, 38.80-3.066s 25.778-0.533, 43.20-0.533
	c 17.422,0.00, 31.866,0.178, 43.333,0.533s 24.444,1.378, 38.934,3.066c 14.489,1.689, 26.312,4.045, 35.467,7.067
	c 9.155,3.021, 18.622,7.288, 28.40,12.80c 9.777,5.511, 17.377,12.267, 22.80,20.267c 5.422,8.00, 9.911,17.911, 13.467,29.733
	c 3.555,11.822, 5.333,25.289, 5.333,40.399c0.00,25.778-10.667,49.156-32.00,70.134c-6.40,6.40-13.867,11.245-22.40,14.533
	c-8.533,3.289-18.178,5.156-28.933,5.601c-10.756,0.444-21.022,0.355-30.801-0.267c-9.777-0.622-21.866-1.467-36.267-2.533
	c-14.40-1.067-26.844-1.601-37.333-1.601c-10.489,0.00-22.934,0.533-37.333,1.601c-14.40,1.066-26.489,1.911-36.267,2.533
	s-20.044,0.711-30.80,0.267c-10.756-0.444-20.355-2.312-28.80-5.601c-8.444-3.288-15.867-8.133-22.267-14.533
	C 78.933,154.272, 68.267,130.895, 68.267,105.116z M 136.267,111.25c0.00,11.911, 2.489,22.00, 7.467,30.267s 11.022,12.40, 18.133,12.40
	s 13.155-4.134, 18.133-12.40s 7.467-18.355, 7.467-30.267c0.00-11.733-2.489-21.778-7.467-30.134s-11.022-12.533-18.133-12.533
	s-13.155,4.178-18.133,12.533S 136.267,99.517, 136.267,111.25z M 221.867,35.783c-0.355,1.422-0.267,2.80, 0.267,4.134
	c 0.533,1.333, 1.422,2.178, 2.667,2.533c 3.022,1.244, 4.978,0.178, 5.867-3.20c 1.956-6.045, 5.245-10.934, 9.867-14.667s 9.689-5.60, 15.20-5.60
	c 5.511,0.00, 10.577,1.866, 15.20,5.60c 4.622,3.733, 7.911,8.622, 9.866,14.667c 0.89,3.378, 2.845,4.444, 5.866,3.20
	c 1.245-0.355, 2.134-1.20, 2.667-2.533c 0.533-1.334, 0.622-2.712, 0.267-4.134c-2.488-8.178-6.844-14.80-13.066-19.866
	c-6.223-5.067-13.155-7.601-20.80-7.601s-14.578,2.533-20.80,7.601C 228.711,20.983, 224.355,27.605, 221.867,35.783z M 238.40,68.05
	c0.00,2.312, 1.689,4.312, 5.067,6.00c 3.378,1.689, 7.378,2.533, 12.00,2.533s 8.622-0.844, 12.00-2.533c 3.378-1.688, 5.066-3.688, 5.066-6.00
	c0.00-2.311-1.688-4.311-5.066-6.00c-3.378-1.688-7.378-2.533-12.00-2.533s-8.622,0.845-12.00,2.533C 240.089,63.739, 238.40,65.739, 238.40,68.05
	z M 323.467,111.25c0.00,11.911, 2.488,22.00, 7.467,30.267c 4.978,8.267, 11.021,12.40, 18.133,12.40s 13.155-4.134, 18.134-12.40
	c 4.978-8.267, 7.467-18.355, 7.467-30.267c0.00-11.733-2.489-21.778-7.467-30.134c-4.979-8.355-11.022-12.533-18.134-12.533
	s-13.155,4.178-18.133,12.533C 325.955,89.472, 323.467,99.517, 323.467,111.25z" />
<glyph unicode="&#x22;" d="M 458.672,435.00l-405.328,0.00 C 24.00,435.00,0.00,411.00,0.00,381.672l0.00-405.328 C0.00-53.00, 24.00-77.00, 53.328-77.00l 405.328,0.00 c 29.328,0.00, 53.328,24.00, 53.328,53.328l0.00,405.328 
		C 512.00,411.00, 488.00,435.00, 458.672,435.00z M 170.672,29.672L 167.888,29.672 L 106.672,29.672 L 106.672,243.00 l 64.00,0.00 L 170.672,29.672 z M 138.672,271.992c-21.552,0.00-38.992,17.424-38.992,38.992c0.00,21.552, 17.456,38.976, 38.992,38.976
		s 38.992-17.424, 38.992-38.976C 177.664,289.448, 160.208,271.992, 138.672,271.992z M 405.328,29.672l-64.00,0.00 l0.00,112.912 c0.00,26.64-11.344,44.816-35.184,44.816
		c-18.224,0.00-21.872-12.24-26.64-24.08C 277.76,159.08, 277.328,153.16, 277.328,147.256L 277.328,29.672 l-64.00,0.00 c0.00,0.00, 0.88,194.736,0.00,213.328l 64.00,0.00 l0.00-36.336 
		c0.00,13.488, 15.104,36.992, 65.328,36.992C 392.88,243.656, 405.328,242.088, 405.328,171.528C 405.328,100.984, 405.328,29.672, 405.328,29.672z" />
<glyph unicode="&#x23;" d="M 115.712,83.24C 112.368,85.80, 106.672,88.696, 106.672,95.416l0.00,22.672 c0.00,0.00-2.176-0.144-4.528-0.144
		c-22.40,0.00-90.112,4.432-102.144,74.944l0.00-157.312 c 36.752,31.552, 99.968,35.056, 125.824,35.12C 124.272,78.136, 119.168,80.568, 115.712,83.24zM 127.744,151.272c 3.392,0.00, 6.72,0.448, 9.968,1.328c 28.496,7.744, 42.672,47.312, 31.552,88.128
		c-9.68,35.52-35.696,61.296-61.872,61.296c-3.392,0.00-6.736-0.448-9.984-1.328C 83.856,297.016, 73.072,286.008, 67.024,269.704
		C 60.80,252.92, 60.368,232.632, 65.84,212.60C 75.536,177.064, 101.552,151.272, 127.744,151.272zM 458.672,435.016l-405.328,0.00 c-29.328,0.00-53.328-24.00-53.328-53.328l0.00-144.304 c 16.00,88.784, 128.656,90.96, 129.872,90.96L 256.00,328.36 l0.00-0.048 
		c0.00-14.768-19.776-17.488-37.12-19.712c-4.416-0.56-9.408-1.328-13.424-2.224c 29.824-16.656, 32.72-44.496, 32.72-81.28
		c0.00-43.536-25.008-64.448-43.44-79.728c-11.52-9.536-20.48-17.072-20.48-26.608c0.00-9.328, 12.592-19.504, 27.088-31.296
		c 24.576-20.016, 58.288-47.376, 58.288-93.76c0.00-28.944-8.688-52.416-25.328-70.704L 458.672-76.984 c 29.328,0.00, 53.328,24.00, 53.328,53.328l0.00,405.328 
		C 512.00,411.016, 488.00,435.016, 458.672,435.016z M 490.672,221.688l-85.328,0.00 l0.00-85.328 l-21.328,0.00 l0.00,85.328 l-85.328,0.00 l0.00,21.328 l 85.328,0.00 l0.00,85.328 l 21.328,0.00 l0.00-85.328 l 85.328,0.00 L 490.672,221.688 zM 125.552,43.464c-2.816,0.00-5.68-0.128-8.528-0.32c-24.144-1.616-46.336-9.984-62.464-23.536
		c-15.744-13.20-23.792-29.776-22.656-46.672c 1.456-21.616, 18.448-39.92, 42.88-50.00l 86.704,0.00 c 30.672,12.112, 51.12,36.016, 49.344,62.128
		C 208.624,17.848, 171.136,43.464, 125.552,43.464z" />
<glyph unicode="&#x24;" d="M 512.00,381.672l0.00-405.328 c0.00-29.328-24.00-53.328-53.328-53.328L 341.328-77.00 L 341.328,136.328 l 64.00,0.00 l0.00,64.00 l-64.00,0.00 l 0.128,35.696c0.00,19.20, 6.416,28.304, 34.048,28.304L 405.328,264.328 L 405.328,349.672 
		c0.00,0.00-21.328,0.00-85.328,0.00c-64.00,0.00-64.00-64.00-64.00-85.328s0.00-64.00,0.00-64.00l-42.672,0.00 l0.00-64.00 l 42.672,0.00 l0.00-213.328 L 53.328-77.00 C 24.00-77.00,0.00-53.00,0.00-23.672l0.00,405.328 C0.00,411.00, 24.00,435.00, 53.328,435.00l 405.328,0.00 C 488.00,435.00, 512.00,411.00, 512.00,381.672
		z" />
<glyph unicode="&#x25;" d="M 458.672,435.00l-405.328,0.00 C 24.00,435.00,0.00,411.00,0.00,381.672l0.00-405.328 C0.00-53.00, 24.00-77.00, 53.328-77.00l 405.328,0.00 c 29.328,0.00, 53.328,24.00, 53.328,53.328l0.00,405.328 
		C 512.00,411.00, 488.00,435.00, 458.672,435.00z M 406.288,163.448c-3.12-16.624-12.672-42.064-40.496-69.904c-48.496-48.496-118.208-59.12-143.024-59.12
		s-105.088,3.664-160.512,79.568c0.00,0.00, 72.688-64.96, 145.648,3.632c-34.448-4.16-36.672,26.752-12.864,30.672c-35.024,1.456-40.848,13.12-45.232,23.36
		c-4.368,10.224, 11.312,10.576, 23.696,11.984c-23.888,8.336-43.504,23.088-41.232,38.416c 1.456,6.016, 21.888,0.624, 20.432,5.008
		C 151.248,231.464, 114.768,247.496, 122.064,276.712c 32.832-16.768, 88.272-26.24, 129.52-69.68c 12.752,36.08, 33.872,83.008, 56.512,92.992
		c 22.656,10.048, 41.584,8.016, 46.704-2.192c 5.12-10.224-31.376-18.24-31.376-18.24c 43.248,4.16, 73.488-35.008, 81.792-71.728
		c 19.664-11.60, 45.168-0.464, 45.168-0.464s-5.504-19.696-38.656-22.656c-4.368-1.424, 18.224-5.808, 41.584-3.248
		C 441.216,165.288, 418.544,163.24, 406.288,163.448z" />
<glyph unicode="&#x21;" d="M 256.00,435.00C 122.384,435.00, 39.376,390.984, 43.888,355.272l 45.008-370.48C 90.688-29.624, 158.224-76.92, 256.00-77.00
		c 97.776,0.08, 165.296,47.376, 167.104,61.776l 45.008,370.48C 472.624,390.984, 389.632,435.00, 256.00,435.00z M 256.00,301.048C 158.224,301.128, 88.896,335.944, 88.896,348.968
		C 88.832,361.896, 158.224,396.776, 256.00,396.728c 97.744,0.048, 167.168-34.832, 167.104-47.76C 423.104,335.944, 353.776,301.128, 256.00,301.048z" />
<glyph unicode="&#x27;" d="M 256.00,435.00C 167.616,435.00, 96.00,363.384, 96.00,275.00C 96.00,122.248, 256.00-77.00, 256.00-77.00s 160.00,199.248, 160.00,352.00C 416.00,363.384, 344.368,435.00, 256.00,435.00z
		 M 256.00,186.68c-47.728,0.00-86.40,38.672-86.40,86.40S 208.272,359.48, 256.00,359.48c 47.696,0.00, 86.40-38.672, 86.40-86.40S 303.696,186.68, 256.00,186.68z" />
<glyph unicode="&#x28;" d="M 503.872,306.376l-119.616,74.928c-5.312,3.312-11.952,3.312-17.264,0.00L 256.00,311.784L 144.976,381.304
		c-5.312,3.312-11.92,3.312-17.232,0.00L 8.128,306.376C 3.088,303.224,0.00,297.528,0.00,291.384L0.00-8.312 c0.00-6.288, 3.248-12.096, 8.496-15.216
		s 11.696-3.024, 16.88,0.24l 110.992,69.52l 111.024-69.52c 5.312-3.312, 11.92-3.312, 17.232,0.00l 110.992,69.52l 111.024-69.52
		c 2.64-1.664, 5.632-2.496, 8.592-2.496c 2.864,0.00, 5.696,0.752, 8.256,2.256C 508.752-20.424, 512.00-14.60, 512.00-8.312L 512.00,291.384 
		C 512.00,297.528, 508.912,303.224, 503.872,306.376z M 119.616,76.52L 33.488,22.568L 33.488,281.48 l 86.128,53.952L 119.616,76.52 z M 239.248,22.568l-86.128,53.952L 153.136,335.432 
		l 86.128-53.952L 239.248,22.568 z M 358.864,76.52l-86.128-53.952L 272.752,281.48 l 86.128,53.952L 358.864,76.52 z M 478.512,22.568l-86.128,53.952L 392.384,335.432 l 86.128-53.952L 478.512,22.568 
		z" />
<glyph unicode="&#x29;" d="M 384.00,30.52L 51.20,30.52 L 51.20,260.92 l 66.432,0.00 c0.00,0.00, 17.664,22.96, 55.552,51.20L 25.60,312.12 C 11.456,312.12,0.00,300.664,0.00,286.52l0.00-281.60 
		c0.00-14.144, 11.456-25.584, 25.60-25.584l 384.00,0.00 c 14.144,0.00, 25.60,11.44, 25.60,25.584l0.00,95.92 L 384.00,58.728L 384.00,30.52 z M 342.08,208.44l0.00-90.896 L 512.00,250.68l-169.92,127.984
		l0.00-80.128 c-206.40,0.00-206.40-204.016-206.40-204.016C 194.112,190.472, 230.064,208.44, 342.08,208.44z" />
<glyph unicode="&#x2a;" d="M 462.72,179.00c0.00,31.92, 19.648,57.104, 49.28,74.448c-5.328,17.808-12.416,34.864-21.12,50.944
		c-33.152-8.704-59.984,4.304-82.608,26.88c-22.576,22.576-29.456,49.424-20.80,82.624C 371.44,422.60, 354.352,429.688, 336.512,435.00
		C 319.216,405.416, 287.92,385.768, 256.00,385.768c-31.92,0.00-63.184,19.648-80.528,49.232C 157.648,429.688, 140.56,422.60, 124.496,413.944
		C 133.184,380.744, 126.288,353.896, 103.696,331.304C 81.136,308.728, 54.272,295.72, 21.072,304.392C 12.40,288.328, 5.312,271.288,0.00,253.48
		C 29.584,236.136, 49.232,210.936, 49.232,179.00c0.00-31.92-19.648-63.184-49.232-80.528c 5.312-17.84, 12.40-34.88, 21.072-50.96
		c 33.20,8.688, 60.032,1.792, 82.624-20.80c 22.576-22.608, 29.488-49.456, 20.816-82.608C 140.56-64.584, 157.648-71.672, 175.472-77.00
		c 17.328,29.632, 48.592,49.28, 80.512,49.28c 31.936,0.00, 63.216-19.648, 80.528-49.28c 17.84,5.328, 34.928,12.416, 50.992,21.12
		c-8.688,33.152-1.792,59.984, 20.784,82.608c 22.608,22.592, 49.472,35.568, 82.608,26.896c 8.704,16.064, 15.792,33.136, 21.12,50.944
		C 482.368,121.896, 462.72,147.112, 462.72,179.00z M 256.00,67.688c-61.456,0.00-111.344,49.84-111.344,111.312C 144.656,240.488, 194.512,290.36, 256.00,290.36
		S 367.312,240.488, 367.312,179.00C 367.312,117.512, 317.456,67.688, 256.00,67.688z" />
<glyph unicode="&#x2b;" d="M 504.64,170.472L 277.136,398.184c-11.632,12.048-30.656,12.048-42.288,0.00L 7.36,170.472
		c-11.632-12.08-7.296-21.936, 9.664-21.936L 64.432,148.536 l0.00-174.864 c0.00-12.672, 0.56-22.896, 23.36-22.896l 110.416,0.00 l0.00,175.36 l 115.568,0.00 l0.00-175.36 l 115.92,0.00 
		c 17.408,0.00, 17.872,10.224, 17.872,22.896l0.00,174.864 l 47.44,0.00 C 511.92,148.536, 516.272,158.392, 504.64,170.472z" />
<glyph unicode="&#x2c;" d="M 486.064,255.08L 25.936,255.08 c-23.36,0.00-24.512-11.344-23.248-25.232l 20.944-228.496c 1.28-13.888, 4.56-25.28, 27.856-25.28
		l 408.976,0.00 c 23.792,0.00, 26.624,11.376, 27.856,25.28l 20.976,228.496C 510.592,243.72, 509.392,255.08, 486.064,255.08z M 469.136,310.904
		c-2.816,11.184-16.624,20.288-30.64,20.288l-172.864,0.00 c-14.064,0.00-33.712,8.064-43.664,17.904L 206.896,364.04C 196.928,373.88, 177.28,381.928, 163.216,381.928
		L 80.64,381.928 c-14.08,0.00-26.816-11.344-28.368-25.20l-7.424-66.128l 429.424,0.00 L 469.136,310.904z" />
<glyph unicode="&#x2d;" d="M 437.296,310.184c0.00,26.032-25.84,26.032-25.84,26.032L 100.624,336.20 c0.00,0.00-25.92,0.00-25.92-26.032l0.00-26.00 l 362.608,0.00 L 437.312,310.184 z
	 M 359.616,392.168L 152.40,392.168 c0.00,0.00-25.904,0.00-25.904-26.032L 385.488,366.136 C 385.488,392.168, 359.616,392.168, 359.616,392.168z M 489.136,278.072
	c-15.344,15.376-15.344,15.376-15.344,15.376l0.00-41.392 L 38.224,252.072 l0.00,41.392 c0.00,0.00,0.00,0.00-15.312-15.376C 7.60,262.648-3.408,258.552, 2.752,226.024
	c 6.16-32.40, 35.888-210.16, 40.304-234.176c 4.816-26.384, 31.616-26.032, 31.616-26.032l 362.608,0.00 c0.00,0.00, 26.832-0.384, 31.632,26.032
	c 4.416,24.016, 34.16,201.776, 40.32,234.176C 515.392,258.552, 504.432,262.648, 489.136,278.072z M 359.568,137.576c0.00,0.00,0.00-26.048-25.872-26.048L 178.304,111.528 
	c-25.904,0.00-25.904,26.048-25.904,26.048l0.00,52.032 l 36.272,0.00 l0.00-41.648 l 134.592,0.00 l0.00,41.648 l 36.304,0.00 L 359.568,137.576 z" />
<glyph unicode="&#x2e;" d="M 256.00,321.336c-166.768,0.00-254.192-122.832-254.192-142.32c0.00-19.472, 87.424-142.352, 254.192-142.352c 166.736,0.00, 254.16,122.88, 254.16,142.352
		C 510.16,198.52, 422.736,321.336, 256.00,321.336z M 256.00,69.544c-62.40,0.00-112.96,49.008-112.96,109.488c0.00,60.464, 50.576,109.504, 112.96,109.504
		c 62.384,0.00, 112.912-49.024, 112.912-109.504C 368.912,118.536, 318.384,69.544, 256.00,69.544z M 256.00,179.016c-10.352,11.344, 16.832,54.736,0.00,54.736
		c-31.216,0.00-56.496-24.512-56.496-54.736c0.00-30.224, 25.296-54.768, 56.496-54.768s 56.448,24.528, 56.448,54.768C 312.448,192.904, 264.784,169.384, 256.00,179.016
		z" />
<glyph unicode="&#x2f;" d="M 503.44-7.832l-125.392,125.424c 20.40,31.616, 32.448,69.136, 32.448,109.488c0.00,111.68-90.928,202.544-202.576,202.544
		c-111.696,0.00-202.544-90.864-202.544-202.544c0.00-111.696, 90.832-202.576, 202.544-202.576c 40.336,0.00, 77.84,11.984, 109.488,32.432l 125.392-125.376
		c 4.16-4.208, 11.072-4.208, 15.184,0.00l 45.488,45.456C 507.648-18.824, 507.648-11.992, 503.44-7.832z M 69.696,227.064
		c0.00,76.176, 62.00,138.224, 138.224,138.224s 138.224-62.016, 138.224-138.224c0.00-76.208-61.952-138.192-138.224-138.192C 131.696,88.824, 69.696,150.888, 69.696,227.064
		z" />
<glyph unicode="&#x32;" d="M 220.72,427.336c-4.144,4.16-12.432,7.616-18.368,7.616L 10.832,434.952 C 4.944,434.952,0.00,430.12,0.00,424.20l0.00-191.504 
		c0.00-5.888, 3.472-14.192, 7.632-18.368l 288.192-288.176c 4.176-4.144, 11.072-4.144, 15.216,0.00l 197.84,197.824c 4.112,4.144, 4.144,11.024,0.00,15.216
		L 220.72,427.336z M 136.048,299.00c-16.816-16.816-44.032-16.816-60.864,0.00c-16.816,16.784-16.816,44.032,0.00,60.864c 16.832,16.816, 44.048,16.816, 60.864,0.00
		C 152.848,343.032, 152.88,315.784, 136.048,299.00z" />
<glyph unicode="&#x33;" d="M 449.744,218.376l-26.368,0.00 L 423.376,316.872 c0.00,60.736-56.96,118.128-117.12,118.128L 205.744,435.00 c-60.16,0.00-117.104-57.392-117.104-118.128l0.00-19.728 
		l 78.736,0.00 L 167.376,316.872 c0.00,27.584, 12.368,39.36, 39.408,39.36l 98.48,0.00 c 27.008,0.00, 39.376-11.776, 39.376-39.36l0.00-98.496 L 167.376,218.376 L 88.64,218.376 L 62.272,218.376 
		c-7.184,0.00-13.04-5.168-13.04-11.536l0.00-272.272 C 49.232-71.816, 55.104-77.00, 62.272-77.00l 387.472,0.00 c 7.168,0.00, 12.992,5.184, 12.992,11.568L 462.736,206.84 
		C 462.736,213.224, 456.912,218.376, 449.744,218.376z M 275.696,72.056l0.00-50.608 c0.00-5.424-4.432-9.84-9.872-9.84l-19.696,0.00 
		c-5.392,0.00-9.84,4.416-9.84,9.84l0.00,50.608 c-11.728,6.80-19.696,19.344-19.696,33.92c0.00,21.776, 17.648,39.36, 39.376,39.36
		c 21.76,0.00, 39.376-17.584, 39.376-39.36C 295.376,91.448, 287.424,78.888, 275.696,72.056z" />
<glyph unicode="&#x34;" d="M 449.744,218.376l-26.368,0.00 L 423.376,316.872 c0.00,60.736-56.96,118.128-117.12,118.128L 205.744,435.00 c-60.16,0.00-117.104-57.392-117.104-118.128l0.00-98.496 
		L 62.272,218.376 c-7.184,0.00-13.04-5.168-13.04-11.536l0.00-272.272 C 49.232-71.816, 55.104-77.00, 62.272-77.00l 387.472,0.00 c 7.168,0.00, 12.992,5.184, 12.992,11.568L 462.736,206.84 
		C 462.736,213.224, 456.912,218.376, 449.744,218.376z M 167.376,316.872c0.00,27.584, 12.352,39.36, 39.376,39.36l 98.496,0.00 c 27.008,0.00, 39.376-11.776, 39.376-39.36
		l0.00-98.496 L 167.376,218.376 L 167.376,316.872 z M 275.696,72.056l0.00-50.608 c0.00-5.424-4.432-9.84-9.872-9.84l-19.696,0.00 c-5.392,0.00-9.84,4.416-9.84,9.84l0.00,50.608 
		c-11.728,6.80-19.696,19.344-19.696,33.92c0.00,21.776, 17.648,39.36, 39.376,39.36c 21.76,0.00, 39.376-17.584, 39.376-39.36
		C 295.376,91.448, 287.424,78.888, 275.696,72.056z" />
<glyph unicode="&#x35;" d="M 460.80,222.024l-48.496-48.496c-6.32,21.872-18.176,42.88-35.456,61.04l 35.696,35.728
		c 12.784,12.752, 6.832,34.576-6.032,47.408l-37.328,37.312c-11.776,11.776-30.864,17.968-45.104,3.76l-3.408-3.44l0.00,0.00l-16.00-15.984l-3.088-3.12
		l0.00,0.00L 204.736,239.48c-13.584-13.616-8.624-32.832, 3.328-44.992l0.00,0.016 c 0.192-0.208, 0.368-0.448, 0.496-0.576l 23.60-23.60l 40.24-40.208
		l-48.256-48.24L 183.888,122.104l-23.60,23.552L 160.048,145.928c-0.064,0.112-0.112,0.144-0.192,0.24c-0.048,0.00-0.064,0.048-0.112,0.08l0.00,0.00
		c-40.448,40.768-41.936,102.832-3.28,141.504l 68.688,68.656c-0.016,0.00-0.016,0.00-0.016,0.00l 50.672,50.672c 38.656,38.64, 100.88,37.008, 141.648-3.728
		l 37.312-37.328C 496.784,323.944, 499.456,260.728, 460.80,222.024z M 288.768,274.60c-0.08,0.112-0.24,0.192-0.32,0.304l-48.272-48.256
		c 0.112-0.128, 0.208-0.208, 0.336-0.32l 61.392-61.392c 12.864-12.848, 18.832-34.624, 6.064-47.44l-119.296-119.28
		c-12.88-12.88-34.752-6.992-47.60,5.904l-37.328,37.264c-12.112,12.112-17.232,31.60-3.568,45.264l 35.472,35.456
		c-17.68,17.776-29.616,38.656-35.984,60.528l-47.728-47.744c-38.768-38.72-37.20-101.008, 3.536-141.776l 37.312-37.312
		c 41.344-41.344, 106.032-44.016, 144.128-5.872l 119.312,119.296c 38.656,38.656, 36.016,101.872-6.08,143.936L 288.768,274.60z" />
<glyph unicode="&#x36;" d="M 501.328,5.00c0.00-22.48,0.00-53.328,0.00-53.328c0.00-3.12-2.576-7.168-5.712-7.168L 16.384-55.496 c-3.12,0.00-5.712,4.048-5.712,7.168
		c0.00,0.00,0.00,30.848,0.00,53.328s 4.24,31.68, 21.328,41.392c 13.744,7.808, 105.984,60.816, 149.328,79.44l0.00,80.384 c-13.312,9.68-21.328,24.704-21.328,47.632
		c0.00,53.328,0.00,63.664,0.00,63.664c0.00,52.80, 32.00,96.00, 96.00,96.00c 64.00,0.00, 96.00-43.20, 96.00-96.00l0.00-63.664 c0.00-22.704-8.048-37.696-21.328-47.424l0.00-80.576 
		c 46.00-18.624, 135.568-71.60, 149.328-79.44C 497.088,36.68, 501.328,27.448, 501.328,5.00z" />
<glyph unicode="&#x37;" d="M 487.872-13.752c-2.368,14.00-8.784,22.00-23.344,30.208c-15.792,9.008-97.328,36.72-147.20,58.128
		c0.00,0.00,0.00,35.792,0.00,49.088c 46.992,3.088, 81.36,27.888, 95.60,43.328c 14.224,15.472-12.464,30.256-33.488,54.784c-21.008,24.528-24.496,45.424-24.496,94.512
		C 354.944,362.536, 316.848,413.672, 256.00,413.672C 195.20,413.672, 157.872,362.536, 157.872,316.296c0.00-49.088-0.448-69.952-21.488-94.512c-21.04-24.56-52.032-44.88-37.776-60.336
		c 14.224-15.44, 71.552-34.736, 96.08-37.776c0.00-13.296,0.00-49.088,0.00-49.088c-49.088-21.424-131.408-49.136-147.20-58.128
		c-14.544-8.208-20.928-16.208-23.344-30.208c-0.752-1.584-1.216-3.248-1.216-5.072l0.00-24.528 C 22.928-50.168, 28.432-55.672, 35.184-55.672l 441.664,0.00 
		c 6.72,0.00, 12.224,5.504, 12.224,12.288l0.00,24.528 C 489.088-17.016, 488.592-15.32, 487.872-13.752z" />
<glyph unicode="&#x38;" d="M 501.712,306.552c 4.176-4.112, 4.208-10.896, 0.064-15.04L 192.976-17.272c-4.144-4.112-10.944-4.112-15.088,0.00
		l-69.232,69.248c-4.16,4.144-10.96,10.944-15.088,15.088L 10.24,150.408c-4.144,4.096-4.144,10.928,0.00,15.088l 69.248,69.248
		c 4.144,4.112, 10.96,4.112, 15.088,0.00l 83.328-83.328c 4.16-4.144, 10.96-4.144, 15.088,0.00L 416.848,375.24c 4.112,4.112, 10.96,4.144, 15.152,0.048
		L 501.712,306.552z" />
<glyph unicode="&#x39;" d="M 262.512,346.312l 172.16-329.232c 3.584-4.624, 1.712-9.008-4.144-9.008L 81.488,8.072 c-5.872,0.00-7.728,4.336-4.144,8.96
		l 172.144,329.52C 253.056,351.224, 258.928,350.984, 262.512,346.312z" />
<glyph unicode="&#x3a;" d="M 423.312,172.488L 94.08,0.328c-4.624-3.584-9.008-1.712-9.008,4.144L 85.072,353.512 c0.00,5.872, 4.336,7.728, 8.96,4.144
		l 329.536-172.144C 428.224,181.944, 427.984,176.072, 423.312,172.488z" />
<glyph unicode="&#x3b;" d="M 88.704,185.528l 329.232,172.16c 4.624,3.584, 9.008,1.712, 9.008-4.144L 426.944,4.488 c0.00-5.872-4.336-7.744-8.96-4.16
		l-329.52,172.16C 83.792,176.056, 84.032,181.944, 88.704,185.528z" />
<glyph unicode="&#x3c;" d="M 249.488,11.704L 77.328,340.936c-3.584,4.624-1.712,9.008, 4.144,9.008l 349.008,0.00 c 5.872,0.00, 7.744-4.336, 4.16-8.96
		l-172.16-329.52C 258.944,6.792, 253.072,7.032, 249.488,11.704z" />
<glyph unicode="&#x3d;" d="M 430.576,157.736l-110.544,0.00 l0.00-181.056 c0.00-5.84-5.04-10.944-10.96-10.944L 202.896-34.264 C 197.056-34.264, 192.00-29.208, 192.00-23.32l0.00,181.056 
		L 81.472,157.736 c-5.872,0.00-7.728,4.016-4.144,8.624l 172.144,222.464c 3.584,4.656, 9.456,4.592, 13.04-0.048l 172.144-222.40
		C 438.272,161.72, 436.40,157.736, 430.576,157.736z" />
<glyph unicode="&#x3e;" d="M 234.736,4.456l0.00,110.528 L 53.68,114.984 c-5.872,0.00-10.944,5.056-10.944,10.944L 42.736,232.104 C 42.736,237.944, 47.792,243.00, 53.68,243.00l 181.056,0.00 
		L 234.736,353.528 c0.00,5.872, 3.984,7.728, 8.624,4.144l 222.464-172.144c 4.656-3.584, 4.608-9.424-0.048-13.008l-222.40-172.144
		C 238.736-3.272, 234.736-1.40, 234.736,4.456z" />
<glyph unicode="&#x3f;" d="M 268.624,0.328l-222.384,172.16c-4.656,3.584-4.688,9.424-0.048,13.008l 222.464,172.144
		c 4.624,3.584, 8.576,1.728, 8.576-4.144L 277.248,243.00 l 181.072,0.00 c 5.872,0.00, 10.928-5.04, 10.928-10.896l0.00-106.192 c0.00-5.84-4.992-10.944-10.928-10.944l-181.072,0.00 
		l0.00-110.528 C 277.248-1.368, 273.264-3.256, 268.624,0.328z" />
<glyph unicode="&#x40;" d="M 81.456,200.264l 110.528,0.00 L 191.984,381.32 c0.00,5.84, 5.056,10.944, 10.944,10.944l 106.176,0.00 C 314.944,392.264, 320.00,387.208, 320.00,381.32l0.00-181.056 
		l 110.528,0.00 c 5.872,0.00, 7.728-4.016, 4.144-8.624l-172.144-222.464c-3.584-4.624-9.456-4.608-13.04,0.048L 77.36,191.624
		C 73.728,196.28, 75.60,200.264, 81.456,200.264z" />
<glyph unicode="&#x41;" d="M 164.336,0.376l-86.912,86.96l 273.488,273.472l 86.912-86.896L 164.336,0.376z M 127.984-29.752
		c 5.584,2.176, 6.656,7.376, 2.448,11.584l-71.552,71.568c-4.224,4.208-9.408,3.12-11.568-2.448l-46.576-121.008
		c-2.16-5.584, 0.64-8.384, 6.224-6.208L 127.984-29.752z M 507.536,365.352L 442.352,430.52c-5.968,5.968-15.76,5.968-21.744,0.00l-10.88-10.832
		l-21.76-21.76l-10.864-10.864l 10.864-10.88l 65.232-65.20l 10.88-10.864l 10.864,10.864l 21.744,21.712l 10.88,10.896
		C 513.488,349.544, 513.488,359.336, 507.536,365.352z" />
<glyph unicode="&#x42;" d="M 482.368,88.648c 1.408-5.232-1.36-7.488-6.16-4.944l-72.576,38.08c-22.512-6.928-47.344-10.88-73.536-10.88
		c-100.464,0.00-181.904,56.688-181.904,126.592c0.00,69.936, 81.424,126.64, 181.904,126.64C 430.544,364.104, 512.00,307.448, 512.00,237.496
		c0.00-32.688-17.92-62.336-47.12-84.784L 482.368,88.648z M 324.16,72.376c-120.24,0.00-214.40,69.52-214.40,158.288c0.00,13.696, 2.512,26.88, 6.72,39.44
		C 48.272,251.304,0.00,205.032,0.00,150.888c0.00-33.152, 18.192-63.28, 47.76-86.016l-17.712-64.96c-1.424-5.264, 1.344-7.504, 6.192-4.944l 73.648,38.576
		c 22.832-7.04, 48.00-11.008, 74.576-11.008c 59.456,0.00, 112.144,19.696, 145.856,50.064C 328.256,72.504, 326.208,72.376, 324.16,72.376z" />
<glyph unicode="&#x43;" d="M 324.08,178.984l 120.464,120.496c 4.736,4.736, 4.736,12.48,0.00,17.20l-50.832,50.832
		c-4.72,4.736-12.432,4.736-17.168,0.00l-120.512-120.496L 135.472,367.56c-4.752,4.736-12.48,4.736-17.20,0.00L 67.44,316.712
		c-4.736-4.688-4.736-12.416,0.00-17.20l 120.576-120.56l-120.528-120.528c-4.688-4.688-4.688-12.432,0.00-17.168l 50.832-50.832
		c 4.752-4.688, 12.496-4.688, 17.216,0.00l 120.496,120.496l 120.448-120.448c 4.72-4.72, 12.48-4.72, 17.20,0.00l 50.864,50.864
		c 4.688,4.688, 4.688,12.432,0.00,17.20L 324.08,178.984z" />
<glyph unicode="&#x44;" d="M 304.192,227.144L 304.192,397.544 c0.00,6.672-5.504,12.176-12.144,12.16l-71.92,0.00 c-6.672,0.00-12.144-5.456-12.144-12.144l0.00-170.432 L 37.456,227.128 
		c-6.704-0.016-12.16-5.488-12.144-12.16l0.00-71.888 c-0.016-6.656, 5.456-12.112, 12.16-12.144l 170.496,0.00 l0.00-170.448 c0.00-6.656, 5.504-12.096, 12.144-12.144l 71.888,0.00 
		c 6.656,0.048, 12.16,5.552, 12.16,12.16l0.00,170.384 l 170.32,0.048c 6.656,0.00, 12.16,5.488, 12.16,12.144l0.00,71.92 c0.00,6.64-5.504,12.096-12.16,12.16L 304.192,227.144 z
		" />
<glyph unicode="&#x45;" d="M 448.00,264.328l 10.672,0.00 l0.00-330.672 c0.00-5.872-4.80-10.672-10.672-10.672L 64.00-77.00 c-5.872,0.00-10.672,4.80-10.672,10.672l0.00,490.672 C 53.328,430.20, 58.128,435.00, 64.00,435.00l 224.00,0.00 
		l0.00-10.672 l0.00-106.672 l0.00-42.672 C 288.00,269.128, 292.80,264.328, 298.672,264.328l 42.672,0.00 L 448.00,264.328 z M 451.12,314.552l-112.96,112.912L 330.672,435.00l0.00-10.672 L 330.672,371.00 l0.00-53.328 C 330.672,311.80, 335.472,307.00, 341.328,307.00l 53.328,0.00 L 448.00,307.00 l 10.672,0.00 
		L 451.12,314.552z" />
<glyph unicode="&#x46;" d="M 32.00,424.328l0.00-405.328 C 32.00,13.128, 36.80,8.328, 42.672,8.328l 52.672,0.00 L 96.00,339.00L 96.00,371.00 L 106.672,371.00 l 288.00,0.00 L 394.672,424.328 c0.00,5.872-5.712,10.672-11.568,10.672L 42.672,435.00 
			C 36.80,435.00, 32.00,430.20, 32.00,424.328zM 149.328,328.328l0.00-394.672 C 149.328-72.20, 154.128-77.00, 160.00-77.00l 320.00,0.00 c 5.872,0.00, 10.672,4.80, 10.672,10.672l0.00,384.00 C 490.672,323.528, 485.872,328.328, 480.00,328.328M 149.328,328.328" />
<glyph unicode="&#x48;" d="M 501.328,285.672l-64.00,0.00 C 431.472,285.672, 426.672,280.84, 426.672,275.00l0.00-64.00 c0.00-5.872-4.80-10.672-10.672-10.672L 95.344,200.328 C 89.456,200.328, 85.328,205.128, 85.328,211.00l0.00,64.00 
		C 85.328,280.84, 79.872,285.672, 74.00,285.672L 10.672,285.672 C 4.80,285.672,0.00,280.84,0.00,275.00l0.00-297.984 C0.00-28.872, 4.80-34.328, 10.672-34.328l 78.992,0.00 c 5.872,0.00, 11.84,4.992, 13.248,10.672
		l 8.176,42.832C 112.496,24.824, 118.512,29.672, 124.336,29.672l 263.344,0.00 c 5.824,0.00, 11.84-4.672, 13.248-10.32l 8.176-43.008c 1.408-5.68, 7.424-10.672, 13.248-10.672
		L 501.328-34.328 c 5.872,0.00, 10.672,5.456, 10.672,11.328L 512.00,275.00 C 512.00,280.84, 507.20,285.672, 501.328,285.672z M 42.672,221.224c-11.792,0.00-21.328,9.52-21.328,21.328c0.00,11.776, 9.536,21.328, 21.328,21.328s 21.328-9.552, 21.328-21.328
		C 64.00,230.712, 54.464,221.224, 42.672,221.224zM 354.576-23.32C 353.168-17.672, 347.20-13.00, 341.328-13.00L 170.672-13.00 c-5.872,0.00-11.84-4.672-13.248-10.32l-16.176-43.328
		C 139.84-72.328, 143.472-77.00, 149.328-77.00l 213.328,0.00 c 5.872,0.00, 9.488,4.672, 8.08,10.32L 354.576-23.32zM 382.864,254.952c 0.576-5.824-3.664-10.608-9.536-10.608l-234.672,0.00 c-5.872,0.00-10.176,4.784-9.536,10.608l 19.12,169.456
		C 148.848,430.20, 154.128,435.00, 160.016,435.00l 192.00,0.00 c 5.84,0.00, 11.136-4.784, 11.824-10.608L 382.864,254.952z" />
<glyph unicode="&#x49;" d="M 512.00,29.672c0.00-5.872-4.80-10.672-10.672-10.672l-490.672,0.00 C 4.80,19.00,0.00,23.80,0.00,29.672l0.00,42.672 c0.00,5.872, 4.80,10.672, 10.672,10.672l 490.672,0.00 
		c 5.872,0.00, 10.672-4.80, 10.672-10.672L 512.00,29.672 z M 512.00,200.328c0.00,5.872-4.80,10.672-10.672,10.672l-490.672,0.00 C 4.80,211.00,0.00,206.20,0.00,200.328l0.00-42.672 c0.00-5.872, 4.80-10.672, 10.672-10.672l 490.672,0.00 
		c 5.872,0.00, 10.672,4.80, 10.672,10.672L 512.00,200.328 z M 512.00,328.328c0.00,5.872-4.80,10.672-10.672,10.672l-490.672,0.00 C 4.80,339.00,0.00,334.20,0.00,328.328l0.00-42.672 c0.00-5.872, 4.80-10.672, 10.672-10.672l 490.672,0.00 
		C 507.20,275.00, 512.00,279.80, 512.00,285.672L 512.00,328.328 z" />
<glyph unicode="&#x4a;" d="M 276.992,305.016c-0.768,5.376-3.568,13.136-6.656,20.208c-4.432,9.984-8.656,20.272-8.768,28.928
		c-3.824-1.936-7.28-6.272-9.664-9.152c-1.728-2.064-3.024-3.712-4.336-4.736l-1.216-0.976l-6.896,0.048l-5.616,4.432l0.00-4.432 
		c0.00,0.00-11.792-10.32-14.256-20.096c 7.60-5.072, 31.216-9.232, 45.456-12.048C 268.992,306.408, 273.92,305.704, 276.992,305.016zM 256.00,435.00C 114.624,435.00,0.00,320.376,0.00,179.00s 114.624-256.00, 256.00-256.00c 141.376,0.00, 256.00,114.624, 256.00,256.00S 397.376,435.00, 256.00,435.00z M 395.904,6.328
		l-6.672-6.48c-5.744-3.584-10.736-8.256-15.792-11.584c-20.608-13.52-43.92-30.272-72.72-30.272l-2.896,0.00 l-1.28,2.64
		c-4.912,4.848-1.328,11.056, 0.40,13.744c 0.592,0.912, 1.616,2.816, 1.648,3.376c-17.728,3.728-27.216,18.224-36.464,32.08l-2.096,3.216
		c-2.304,14.64, 4.40,23.088, 9.776,29.824c 5.584,7.024, 9.456,11.904, 5.872,20.016c-2.24-0.304-4.464-0.448-6.576-0.448
		c-16.384,0.00-30.608,8.592-39.28,23.616c-9.392,4.752-19.84,8.816-29.936,12.736c-21.248,8.272-43.216,16.832-58.304,32.496L 140.288,132.712
		l 0.064,1.872c 0.656,16.832-7.232,24.40-16.368,33.136c-4.032,3.888-8.256,7.856-11.648,12.80l-0.896,1.28l 0.08,1.552
		c 1.072,15.552-3.184,25.776-7.664,36.496C 102.224,223.88, 100.528,227.848, 99.136,232.136C 99.152,257.352, 106.688,273.992, 113.92,290.088
		c 6.288,13.872, 12.224,27.008, 13.808,44.656c 0.432,2.448, 0.128,2.672-1.856,4.16C 123.456,340.792, 119.36,343.912, 120.592,351.288l 0.24,1.408
		l 1.04,1.04c 10.816,10.416, 28.944,27.824, 48.656,27.824c 5.648,0.00, 11.056-1.408, 16.144-4.208C 195.216,379.96, 204.08,381.496, 212.672,382.968
		c 18.416,3.152, 37.424,4.16, 55.408,18.288l 1.216-1.264l 13.84,0.00 l 1.264,1.216c 9.776-8.048, 21.456-10.224, 31.808-13.136
		c 16.432-4.608, 33.408-8.816, 29.056-33.344l-0.56-3.008l-3.328-0.208c-2.928-0.304-5.776-0.368-8.528-0.368
		c-13.248,0.00-24.56,3.136-35.888,7.056l-0.128-1.296c-0.176-2.00-0.048-4.352, 0.048-6.736c 0.128-4.032, 0.336-8.08-0.56-11.568
		c 4.88-2.80, 10.256-5.584, 15.824-8.448c 20.992-10.816, 44.784-23.104, 54.544-43.216l 1.328-2.688l-2.048-2.192
		c-4.608-5.04-10.608-7.424-18.448-7.424c-4.016,0.00-8.048,0.624-11.76,1.232c-2.704,0.448-5.232,0.88-7.344,0.88
		c-5.68-6.224-5.68-6.224-5.184-10.576l 0.56-5.616l-2.608-1.36c-20.432-10.768-25.072-15.984-27.264-46.80l-0.08-1.152l-0.64-0.96
		c-2.224-3.376-4.752-6.272-7.248-9.152c-3.712-4.176-7.168-8.208-9.36-13.584c-0.256-3.008, 0.32-6.544, 0.912-9.968
		c 1.008-6.336, 2.16-13.52-5.36-21.056l-1.36-1.344l-1.968,0.08c-11.92,0.592-20.096,5.952-24.32,15.888
		c-6.896,3.696-12.048,4.432-17.936,4.432l-10.496-0.192c-3.60,0.00-9.20,0.144-16.24,1.52c-5.888-2.256-12.096-15.872-10.432-28.944
		c 0.816-6.544, 3.776-13.184, 13.20-13.184l 0.016,0.00 c 4.992,0.00, 6.912,0.448, 9.856,3.60c 3.344,3.568, 7.504,7.232, 15.824,7.232
		c 1.68,0.00, 3.568-0.592, 5.648-1.04l 1.344-0.448l 0.944-1.072c 6.512-6.672, 4.48-13.968, 2.88-19.824c-0.624-2.224-1.232-4.48-1.472-6.736
		c 1.776-1.072, 4.672-1.648, 7.552-2.224c 5.488-1.136, 12.352-2.448, 15.296-8.592c 0.704-4.352, 0.576-7.632, 0.448-10.944
		c-0.176-4.368-0.432-9.808, 0.976-11.712c 0.704-1.136, 2.384-2.064, 7.808-2.064c 1.84,0.00, 9.712,0.432, 11.696,0.432
		c 0.688,0.00, 1.344-0.016, 2.00-0.048c 14.384,16.576, 38.192,17.008, 63.36,17.424c 5.184,0.112, 10.496,0.192, 15.856,0.448l 1.584,0.064l 1.328-0.976
		c 5.296-4.08, 13.84-5.888, 22.096-7.632c 11.12-2.368, 22.608-4.848, 29.488-12.88c 1.616,0.304, 3.264,0.848, 4.992,1.456
		c 2.816,1.024, 5.76,2.096, 8.96,2.096c 3.008,0.00, 5.776-0.96, 8.272-2.816l 2.064-1.536l-0.336-2.56
		C 437.376,46.184, 415.344,25.016, 395.904,6.328z" />
<glyph unicode="&#x4b;" d="M 272.192,130.872l 170.32,0.048c 6.656,0.00, 12.144,5.488, 12.144,12.112l0.00,71.936 c0.00,6.64-5.504,12.096-12.144,12.16l-170.32,0.00 M 282.64,227.128L 69.456,227.128 c-6.704-0.016-12.16-5.488-12.144-12.16l0.00-71.888 c-0.016-6.656, 5.456-12.112, 12.16-12.144l 213.168,0.00 " />
<glyph unicode="&#x26;" d="M 0.768,179.016c0.00,135.152, 110.16,244.688, 245.328,244.688c 67.568,0.00, 128.336-27.392, 172.624-71.68l-173.872-173.056l0.00-244.688 
			C 113.264-65.672, 0.768,43.912, 0.768,179.016zM 314.176,179.016l 138.384,138.448c 76.48-76.432, 79.088-203.472, 2.608-279.888L 314.176,179.016
		zM 289.648,140.84l0.00-206.544 c 52.656,0.00, 100.208,29.904, 138.432,68.112L 289.648,140.84z" />
<glyph unicode="&#x47;" d="M 448.00,307.00L 448.00,371.00 L0.00,371.00 l0.00-352.00 c0.00-17.673, 14.327-32.00, 32.00-32.00l 432.00,0.00 c 26.511,0.00, 48.00,21.489, 48.00,48.00L 512.00,307.00 L 448.00,307.00 z M 416.00,19.00L 32.00,19.00 L 32.00,339.00 l 384.00,0.00 L 416.00,19.00 zM 64.00,275.00L 384.00,275.00L 384.00,243.00L 64.00,243.00zM 256.00,211.00L 384.00,211.00L 384.00,179.00L 256.00,179.00zM 256.00,147.00L 384.00,147.00L 384.00,115.00L 256.00,115.00zM 256.00,83.00L 352.00,83.00L 352.00,51.00L 256.00,51.00zM 64.00,211.00L 224.00,211.00L 224.00,51.00L 64.00,51.00z" />
<glyph unicode="&#x4c;" d="M 348.916,271.476l-32.476,32.461L 154.035,141.566c-26.907-26.896-26.907-70.524,0.00-97.422
	c 26.902-26.896, 70.53-26.896, 97.437,0.00l 194.886,194.854c 44.857,44.831, 44.857,117.531,0.00,162.363
	c-44.833,44.852-117.556,44.852-162.391,0.00L 79.335,196.788l 0.017-0.016c-0.145-0.152-0.306-0.288-0.438-0.423
	c-62.551-62.548-62.551-163.928,0.00-226.453c 62.527-62.528, 163.934-62.528, 226.494,0.00c 0.137,0.137, 0.258,0.284, 0.41,0.438l 0.016-0.017
	l 139.666,139.646l-32.493,32.46L 273.35,2.792l-0.008,0.00 c-0.148-0.134-0.282-0.285-0.423-0.422
	c-44.537-44.529-116.99-44.529-161.538,0.00c-44.531,44.521-44.531,116.961,0.00,161.489c 0.152,0.152, 0.302,0.291, 0.444,0.423l-0.023,0.03
	l 204.64,204.583c 26.856,26.869, 70.572,26.869, 97.443,0.00c 26.856-26.867, 26.856-70.574,0.00-97.42L 218.999,76.625
	c-8.968-8.961-23.527-8.961-32.486,0.00c-8.947,8.943-8.947,23.516,0.00,32.46L 348.916,271.476z" />
<glyph unicode="&#x4e;" d="M0.00,99.512c 20.016,10.56, 39.232,20.224, 53.312,26.256l0.00,80.432 c-13.328,9.712-21.328,24.704-21.328,47.68c0.00,53.376,0.00,63.696,0.00,63.696
	C 32.00,370.424, 64.00,413.672, 128.048,413.672c 64.064,0.00, 96.08-43.248, 96.08-96.064l0.00-63.696 c0.00-22.704-8.048-37.712-21.36-47.472l0.00-80.64 
	c 46.064-18.624, 135.696-71.664, 149.44-79.504c 17.136-9.728, 21.424-18.96, 21.424-41.408c0.00-22.528,0.00-53.376,0.00-53.376c0.00-3.12-2.624-7.168-5.76-7.168
	L0.00-55.672 L0.00,99.512 z M 512.112,33.608c-20.56,14.864-46.096,32.144-69.776,42.32c0.00,0.00,0.00,31.12,0.00,42.688c 29.968,1.968, 54.064,14.096, 69.68,25.728
	l 0.016,52.976c-2.064,2.128-4.144,4.352-6.128,6.672c-18.304,21.328-21.36,38.08-21.36,80.784c0.00,40.24-33.152,84.736-86.08,84.736
	c-52.88,0.00-85.376-44.48-85.376-84.736c0.00-42.688-0.40-59.44-18.688-80.784c-18.304-21.328-45.264-39.056-32.912-52.528
	c 12.40-13.424, 62.272-30.208, 83.632-32.88c0.00-5.296,0.00-26.368,0.00-26.368l 35.984-19.84c 31.168-17.728, 28.08-35.28, 28.08-64.048
	c0.00,0.00, 0.432-61.712,0.00-64.048L 512.00-55.688 L 512.112,33.608z" />
<glyph unicode="&#x4f;" d="M 504.816,427.816c-17.424,17.424-34.048,0.96-90.512-26.176C 263.248,329.032,0.00,181.512,0.00,181.512l 226.192-32.32L 258.496-77.00
		c0.00,0.00, 147.536,263.248, 220.112,414.288C 505.792,393.768, 522.224,410.376, 504.816,427.816z M 450.544,369.64l-164.272-305.088l-16.688,138.64L 450.544,369.64z" />
<glyph unicode="&#x51;" d="M 256.00,435.00C 114.624,435.00,0.00,320.376,0.00,179.00c0.00-141.392, 114.624-256.00, 256.00-256.00c 141.392,0.00, 256.00,114.608, 256.00,256.00C 512.00,320.376, 397.392,435.00, 256.00,435.00z" />
<glyph unicode="&#x30;" d="M 256.00,435.00C 114.615,435.00,0.00,320.385,0.00,179.00s 114.615-256.00, 256.00-256.00s 256.00,114.615, 256.00,256.00S 397.385,435.00, 256.00,435.00z M 256.00-13.00
		c-106.039,0.00-192.00,85.961-192.00,192.00c0.00,106.039, 85.961,192.00, 192.00,192.00c 106.039,0.00, 192.00-85.961, 192.00-192.00C 448.00,72.961, 362.039-13.00, 256.00-13.00zM 224.00,307.00A32.00,32.00 4500.00 1,0 288.00,307A32.00,32.00 4500.00 1,0 224.00,307zM 320.00,275.00A32.00,32.00 4500.00 1,0 384.00,275A32.00,32.00 4500.00 1,0 320.00,275zM 128.00,275.00A32.00,32.00 4500.00 1,0 192.00,275A32.00,32.00 4500.00 1,0 128.00,275zM 224.00,83.00L 224.00,51.00L 288.00,51.00L 288.00,83.00L 256.00,243.00 	z" />
<glyph unicode="&#x52;" d="M 254.059,373.977C 205.881,431.227, 169.369,435.00, 96.00,435.00l0.00-256.00 c 128.267,64.00, 142.636-8.335, 223.506-1.023
		C 399.234,185.197, 467.031,246.564, 512.00,307.00C 384.644,277.547, 320.54,294.977, 254.059,373.977zM0.00,435.00L 64.00,435.00L 64.00-77.00L0.00-77.00z" />
<glyph unicode="&#x53;" d="M 256.227,414.488c-130.059,0.00-235.508-105.456-235.508-235.52c0.00-130.077, 105.448-235.52, 235.508-235.52
			c 130.08,0.00, 235.532,105.443, 235.532,235.52C 491.761,309.032, 386.308,414.488, 256.227,414.488z M 256.227-5.352
			c-101.779,0.00-184.308,82.524-184.308,184.32c0.00,101.80, 82.528,184.32, 184.308,184.32c 101.812,0.00, 184.332-82.52, 184.332-184.32
			C 440.561,77.171, 358.041-5.352, 256.227-5.352zM 274.161,312.088L 238.307,312.088L 238.307,171.54L 325.489,84.376L 350.829,109.716L 274.161,186.392 		z" />
<glyph unicode="&#x4d;" d="M 321.777,409.368l-138.24,0.00 c-14.14,0.00-20.48-11.464-20.48-25.60l0.00-435.20 l 92.16,92.16l 92.16-92.16l0.00,435.20 C 347.377,397.904, 335.916,409.368, 321.777,409.368z" />
<glyph unicode="&#x54;" d="M 432.00,275.00c-17.60,0.00-32.00-14.40-32.00-32.00l0.00-128.00 c0.00-17.60, 14.40-32.00, 32.00-32.00s 32.00,14.40, 32.00,32.00L 464.00,243.00 C 464.00,260.60, 449.60,275.00, 432.00,275.00zM 48.00,275.00c-17.60,0.00-32.00-14.40-32.00-32.00l0.00-128.00 c0.00-17.60, 14.40-32.00, 32.00-32.00s 32.00,14.40, 32.00,32.00L 80.00,243.00 C 80.00,260.60, 65.599,275.00, 48.00,275.00zM 96.00,67.00c0.00-26.51, 21.49-48.00, 48.00-48.00l 16.00,0.00 l0.00-64.00 c0.00-17.60, 14.40-32.00, 32.00-32.00s 32.00,14.40, 32.00,32.00l0.00,64.00 l 32.00,0.00 l0.00-64.00 c0.00-17.60, 14.401-32.00, 32.00-32.00s 32.00,14.40, 32.00,32.00
		l0.00,64.00 l 16.00,0.00 c 26.51,0.00, 48.00,21.49, 48.00,48.00L 384.00,243.00 L 96.00,243.00 L 96.00,67.00 zM 299.299,390.253l 20.252,38.903c 1.016,1.951, 0.25,4.379-1.701,5.395s-4.379,0.25-5.395-1.701l-20.559-39.493
		C 275.797,399.581, 258.299,403.00, 240.00,403.00c-18.298,0.00-35.796-3.419-51.898-9.643L 167.544,432.849c-1.016,1.951-3.443,2.717-5.395,1.701
		s-2.717-3.443-1.701-5.395l 20.25-38.904c-45.315-20.509-78.12-63.792-83.81-115.252l 286.22,0.00 
		C 377.42,326.461, 344.615,369.743, 299.299,390.253z M 176.00,299.80c-12.813,0.00-23.20,10.387-23.20,23.20c0.00,12.813, 10.387,23.20, 23.20,23.20
		s 23.20-10.387, 23.20-23.20C 199.199,310.187, 188.813,299.80, 176.00,299.80z M 304.00,299.80c-12.813,0.00-23.201,10.387-23.201,23.20
		c0.00,12.813, 10.389,23.20, 23.201,23.20s 23.199-10.387, 23.199-23.20C 327.199,310.187, 316.813,299.80, 304.00,299.80z" />
<glyph unicode="&#x55;" d="M 30.269,435.00l 41.072-460.815L 255.719-77.00l 184.862,51.262L 481.731,435.00L 30.269,435.00 z M 392.315,284.286l-0.195,0.00 L 176.045,284.286 l 5.151-57.875
	L 387.18,226.411 l-15.521-173.505L 255.99,20.818l-0.115-0.039l-0.077,0.00 l-0.061,0.00 l-115.786,32.127l-7.915,88.756l 56.747,0.00 l 4.024-45.116
	l 62.931-16.958l 0.139,0.039l 62.967,16.996l 6.535,73.275L 129.509,169.898 L 114.262,340.798l 283.107,0.00 L 392.315,284.286z" />
<glyph unicode="&#x56;" d="M 256.00,403.00c-12.032,0.00-23.854-0.896-35.412-2.606c-0.15,0.391-0.312,0.774-0.491,1.148c 6.413,5.001, 9.775,11.915, 8.317,18.776
		C 226.547,429.10, 217.217,435.00, 205.197,435.00c-2.59,0.00-5.229-0.281-7.84-0.836c-15.084-3.207-25.073-14.311-22.741-25.281
		c 1.417-6.669, 7.146-11.669, 15.082-13.692c-0.016-0.486-0.008-0.975, 0.021-1.467C 89.408,364.959, 16.00,272.555, 16.00,163.00
		c0.00-132.549, 107.452-240.00, 240.00-240.00c 132.549,0.00, 240.00,107.451, 240.00,240.00C 496.00,295.548, 388.549,403.00, 256.00,403.00z M 182.441,410.546
		c-1.353,6.363, 6.24,13.595, 16.579,15.792C 201.086,426.777, 203.165,427.00, 205.197,427.00c 8.018,0.00, 14.347-3.432, 15.392-8.345
		c 0.798-3.755-1.535-7.805-5.693-10.952c-3.517,2.483-8.008,3.563-12.55,2.598c-4.522-0.961-8.174-3.754-10.379-7.428
		C 186.875,404.098, 183.213,406.915, 182.441,410.546z M 384.693,34.307c-21.984-21.984-48.605-37.639-77.655-46.077l-21.198,34.384
		l-5.373-39.979C 272.422-18.441, 264.254-19.00, 256.00-19.00c-48.614,0.00-94.318,18.932-128.693,53.307
		c-21.984,21.983-37.639,48.605-46.077,77.654l 34.384,21.199l-39.98,5.373C 74.559,146.578, 74.00,154.746, 74.00,163.00
		c0.00,48.614, 18.931,94.318, 53.307,128.693c 21.984,21.984, 48.606,37.639, 77.655,46.078l 21.198-34.385l 5.374,39.98
		C 239.578,344.441, 247.746,345.00, 256.00,345.00c 48.614,0.00, 94.318-18.931, 128.693-53.307c 21.984-21.984, 37.639-48.606, 46.077-77.655
		l-34.385-21.199l 39.98-5.373C 437.441,179.422, 438.00,171.254, 438.00,163.00C 438.00,114.386, 419.068,68.682, 384.693,34.307zM 380.451,287.451l-98.489-74.852c-7.322,3.829-15.438,6.031-23.708,6.363l-25.54,53.59l-1.534-59.332
		c-6.642-3.268-12.552-7.832-17.438-13.475l-31.544,11.182l 23.046-24.269c-3.167-6.759-4.933-14.015-5.217-21.412l-53.579-25.533
		l 59.369-1.534c 0.19-0.384, 0.387-0.763, 0.585-1.141l-74.852-98.49l 98.489,74.852c 7.322-3.828, 15.437-6.03, 23.708-6.362l 25.54-53.591
		l 1.533,59.332c 6.643,3.269, 12.553,7.832, 17.439,13.476l 31.545-11.184l-23.047,24.27c 3.168,6.76, 4.934,14.015, 5.218,21.412
		l 53.578,25.533l-59.368,1.535c-0.189,0.383-0.387,0.762-0.585,1.14L 380.451,287.451z M 256.051,212.733l0.00-1.724 L 256.051,212.733 
		L 256.051,212.733z M 246.021,209.951c 3.363,0.715, 6.722,1.059, 10.028,1.059c 2.072,0.00, 4.125-0.135, 6.147-0.398l 0.046-0.016
		l-0.005,0.011c 4.366-0.572, 8.588-1.75, 12.566-3.448l-35.773-27.188l-27.19-35.776c-1.188,2.797-2.135,5.742-2.79,8.826
		C 203.537,178.951, 220.09,204.439, 246.021,209.951z M 281.06,122.058L 281.06,122.058L 281.06,122.058
		c-4.528-2.772-9.591-4.842-15.08-6.009c-3.363-0.715-6.722-1.059-10.027-1.059c-2.075,0.00-4.129,0.136-6.154,0.399l-0.039,0.015
		l 0.005-0.01c-4.367,0.571-8.587,1.75-12.566,3.447l 35.772,27.188l 27.19,35.777c 1.188-2.797, 2.135-5.743, 2.79-8.827
		C 307.296,152.538, 297.923,132.379, 281.06,122.058z" />
<glyph unicode="&#x57;" d="M 255.023,435.00C 115.161,435.00, 14.649,333.552, 14.649,181.388C 14.649,45.979, 112.40-77.00, 255.041-77.00
	c 144.039,0.00, 242.31,122.943, 242.31,258.388C 497.351,334.768, 393.628,435.00, 255.023,435.00z M 344.179,185.729
	c-0.034-84.676-4.549-205.241-89.138-205.241l0.00-0.017 c-83.392,0.00-86.716,120.633-86.716,205.154c0.00,99.19, 9.28,194.284, 86.716,194.284
	C 332.478,379.909, 344.179,283.617, 344.179,185.729z" />
<glyph unicode="&#x58;" d="M 367.101,120.585l 118.025,0.00 c 0.91,8.185, 1.274,16.549, 1.274,25.098c0.00,40.112-10.767,77.734-29.562,110.133
	c 19.44,51.654, 18.746,95.494-7.278,121.695c-24.748,24.64-91.145,20.64-166.206-12.599c-5.552,0.42-11.159,0.636-16.819,0.636
	c-103.024,0.00-189.463-70.897-213.354-166.425C 85.50,240.50, 119.50,270.50, 164.92,292.347c-4.13-3.87-28.227-27.826-32.28-31.882
	C 12.866,140.726-24.905-15.688, 15.737-56.337c 30.893-30.887, 86.879-25.671, 151.188,5.824
	c 29.903-15.229, 63.75-23.815, 99.609-23.815c 96.567,0.00, 178.402,62.158, 208.045,148.724L 355.645,74.396 
	c-16.367-30.191-48.374-50.74-85.109-50.74c-36.734,0.00-68.742,20.549-85.108,50.74c-7.275,13.637-11.457,29.277-11.457,45.828l0.00,0.361 
	L 367.101,120.585 z M 174.151,178.598c 2.728,48.555, 43.10,87.292, 92.383,87.292c 49.283,0.00, 89.656-38.736, 92.383-87.292L 174.151,178.598 z M 448.483,353.096
	c 16.763-16.94, 16.344-48.107, 2.006-87.011c-24.568,37.454-60.259,66.968-102.396,83.82
	C 393.146,369.224, 429.796,371.783, 448.483,353.096z M 46.741-48.628c-21.391,21.398-14.942,66.309, 12.615,120.416
	c 17.154-48.135, 50.578-88.545, 93.668-114.577C 105.309-64.448, 66.256-68.126, 46.741-48.628z" />
<glyph unicode="&#x59;" d="M 511.263,267.93l-5.93-38.04c0.00,0.00-8.477,70.428-18.866,96.757c-15.923,40.344-23.007,40.02-23.054,39.961
	c 10.665-27.102, 8.731-41.662, 8.731-41.662s-18.896,51.499-68.856,67.884c-55.343,18.141-85.285,13.182-88.744,12.243
	c-0.525,0.004-1.032,0.005-1.515,0.005c 0.409-0.031, 0.806-0.073, 1.213-0.106c-0.017-0.01-0.045-0.021-0.041-0.026
	c 0.225-0.274, 61.153-10.651, 71.958-25.498c0.00,0.00-25.88,0.00-51.636-7.421c-1.164-0.333, 94.762-11.982, 114.373-107.837
	c0.00,0.00-10.515,21.938-23.52,25.664c 8.553-26.018, 6.357-75.388-1.788-99.925c-1.048-3.156-2.12,13.641-18.164,20.875
	c 5.14-36.823-0.308-95.228-25.854-111.316c-1.991-1.252, 16.015,57.655, 3.621,34.881c-71.354-109.401-155.702-50.486-193.624-24.555
	c 19.433-4.231, 56.327,0.659, 72.657,12.806c 0.021,0.015, 0.039,0.028, 0.059,0.043c 17.734,12.126, 28.236,20.982, 37.667,18.886
	c 9.437-2.107, 15.719,7.363, 8.39,15.765c-7.338,8.419-25.157,19.989-49.262,13.683c-17.00-4.452-38.067-23.261-70.224-4.216
	c-24.682,14.625-27.006,26.773-27.225,35.188c 0.609,2.983, 1.377,5.768, 2.288,8.312c 2.841,7.935, 11.456,10.329, 16.247,12.219
	c 8.128-1.396, 15.131-3.931, 22.484-7.703c 0.095,2.447, 0.126,5.695-0.009,9.38c 0.705,1.401, 0.269,5.626-0.861,10.79
	c-0.651,5.154-1.71,10.487-3.376,15.346c 0.006,0.001, 0.01,0.005, 0.015,0.007c 0.028,0.009, 0.054,0.02, 0.078,0.035
	c 0.039,0.022, 0.073,0.056, 0.104,0.095c 0.006,0.01, 0.015,0.017, 0.022,0.026c 0.041,0.062, 0.077,0.136, 0.099,0.233
	c 0.51,2.309, 6.011,6.762, 12.859,11.55c 6.136,4.29, 13.351,8.848, 19.034,12.376c 5.03,3.124, 8.86,5.441, 9.673,6.049
	c 0.309,0.233, 0.679,0.506, 1.082,0.818c 0.075,0.058, 0.15,0.116, 0.227,0.177c 0.047,0.037, 0.095,0.074, 0.143,0.113
	c 2.705,2.154, 6.742,6.224, 7.589,14.789c 0.002,0.021, 0.005,0.04, 0.006,0.061c 0.025,0.252, 0.046,0.507, 0.065,0.767
	c 0.014,0.181, 0.025,0.363, 0.036,0.548c 0.007,0.142, 0.016,0.283, 0.022,0.428c 0.015,0.337, 0.025,0.682, 0.03,1.032
	c0.00,0.02, 0.001,0.038, 0.002,0.058c 0.011,0.829-0.003,1.693-0.052,2.601c-0.027,0.507-0.063,0.965-0.149,1.381
	c-0.004,0.022-0.009,0.046-0.014,0.068c-0.009,0.041-0.018,0.082-0.029,0.122c-0.018,0.073-0.038,0.146-0.061,0.215
	c-0.003,0.009-0.005,0.016-0.008,0.023c-0.026,0.08-0.056,0.157-0.087,0.232c-0.002,0.003-0.002,0.005-0.003,0.008
	c-0.877,2.054-4.16,2.829-17.721,3.059c-0.013,0.001-0.025,0.001-0.038,0.001l0.00,0.00c-5.533,0.094-12.769,0.097-22.251,0.059
	c-16.625-0.067-25.814,16.252-28.747,22.566c 4.02,22.23, 15.638,38.071, 34.725,48.813c 0.361,0.203, 0.29,0.371-0.137,0.489
	c 3.732,2.257-45.123,0.062-67.593-28.518c-19.944,4.957-37.327,4.623-52.308,1.107c-2.877,0.081-6.462,0.44-10.717,1.326
	c-9.962,9.028-24.224,25.701-24.988,45.604c0.00,0.00-0.046-0.036-0.126-0.102c-0.01,0.191-0.028,0.38-0.036,0.571
	c0.00,0.00-30.358-23.332-25.814-86.941c-0.011-1.018-0.032-1.993-0.06-2.937c-8.216-11.144-12.293-20.51-12.596-22.578
	C 13.398,271.822, 6.011,249.517,0.00,215.654c0.00,0.00, 4.204,13.333, 12.642,28.433c-6.206-19.011-11.082-48.578-8.218-92.928
	c0.00,0.00, 0.757,9.833, 3.437,23.997c 2.093-27.505, 11.259-61.462, 34.429-101.394c 44.474-76.66, 112.835-115.37, 188.396-121.308
	c 13.418-1.106, 27.025-1.132, 40.712-0.093c 1.258,0.089, 2.516,0.182, 3.775,0.287c 15.482,1.087, 31.067,3.426, 46.619,7.183
	C 534.378,11.23, 511.263,267.93, 511.263,267.93z" />
<glyph unicode="&#x5a;" d="M 160.00,179.00A96.00,96.00 3060.00 1,0 352.00,179A96.00,96.00 3060.00 1,0 160.00,179zM 256.00,307.00l 221.743,0.00 C 433.479,383.517, 350.754,435.00, 256.00,435.00C 180.148,435.00, 112.013,402.00, 65.136,349.586l 71.603-124.02
		C 155.364,273.232, 201.737,307.00, 256.00,307.00zM 256.00,51.00c-48.051,0.00-89.91,26.481-111.799,65.643L 34.277,307.035C 12.481,269.372,0.00,225.645,0.00,179.00
		c0.00-123.45, 87.384-226.483, 203.67-250.639l 71.642,124.088C 269.014,51.496, 262.564,51.00, 256.00,51.00zM 493.372,275.00L 340.653,275.00 C 367.231,251.546, 384.00,217.233, 384.00,179.00c0.00-23.934-6.575-46.329-18.009-65.489L 256.00-77.00
		c 141.385,0.00, 256.00,114.615, 256.00,256.00C 512.00,212.952, 505.375,245.352, 493.372,275.00z" />
<glyph unicode="&#x50;" d="M 256.00,435.00C 114.615,435.00,0.00,320.385,0.00,179.00s 114.615-256.00, 256.00-256.00s 256.00,114.615, 256.00,256.00S 397.385,435.00, 256.00,435.00z M 256.00-13.00
	c-106.039,0.00-192.00,85.961-192.00,192.00c0.00,106.039, 85.961,192.00, 192.00,192.00c 106.039,0.00, 192.00-85.961, 192.00-192.00C 448.00,72.961, 362.039-13.00, 256.00-13.00z" />
<glyph unicode="&#x31;" d="M 478.544,155.908L 397.952,347.708c-6.384,12.789-23.284,23.26-37.559,23.26L 307.441,370.968 l 10.24-104.053l 69.12,0.00 l-130.56-108.269
		l-130.56,108.269l 69.12,0.00 l 10.24,104.053l-52.956,0.00 c-14.276,0.00-31.176-10.471-37.559-23.26L 33.936,155.908c-6.389-12.80-9.688-34.82-7.344-48.932
		l 17.416-94.347c 2.352-14.112, 15.944-25.659, 30.22-25.659l 364.02,0.00 c 14.276,0.00, 27.872,11.548, 30.22,25.659l 17.416,94.347
		C 488.228,121.088, 484.929,143.108, 478.544,155.908z M 443.66,86.068l-6.631-36.919c-1.985-14.172-15.284-25.76-29.556-25.76
		L 105.004,23.388 c-14.268,0.00-27.572,11.588-29.556,25.76l-6.628,36.919c-1.979,14.168, 8.075,25.76, 22.348,25.76l 330.14,0.00 
		C 435.584,111.828, 445.64,100.236, 443.66,86.068z" />
<glyph class="hidden" unicode="&#xf000;" d="M0,435L 512 -77L0 -77 z" horiz-adv-x="0" />
</font>
</defs>
</svg>
